郭少杰 - 一个人醉 (无字幕版) (Master-ProRes-1080p-3.26G)

郭少杰 - 一个人醉 (无字幕版) (Master-ProRes-1080p-3.26G).mov

文件信息:
Complete name : 郭少杰 - 一个人醉 (无字幕版) (Master-ProRes-1080p-3.26G).mov
Format : MPEG-4
Format profile : QuickTime
Codec ID : qt 0000.00 (qt )
File size : 3.26 GiB
Duration : 4 min 0 s
Overall bit rate mode : Variable
Overall bit rate : 116 Mb/s
Encoded date : UTC 2016-06-25 03:46:14
Tagged date : UTC 2016-06-25 03:47:33
Writing library : Apple QuickTime

Video
ID : 1
Format : ProRes
Format version : Version 0
Format profile : 422
Codec ID : apcn
Duration : 4 min 0 s
Bit rate mode : Variable
Bit rate : 115 Mb/s
Width : 1 920 pixels
Height : 858 pixels
Display aspect ratio : 2.25:1
Frame rate mode : Constant
Frame rate : 25.000 FPS
Color space : YUV
Chroma subsampling : 4:2:2
Scan type : Progressive
Bits/(Pixel*Frame) : 2.790
Stream size : 3.22 GiB (99%)
Title : Core Media Video
Writing library : abm0
Encoded date : UTC 2016-06-25 03:46:14
Tagged date : UTC 2016-06-25 03:47:33
Color primaries : BT.709
Transfer characteristics : BT.709
Matrix coefficients : BT.709

Audio
ID : 2
Format : PCM
Format settings : Little / Signed
Codec ID : lpcm
Duration : 4 min 0 s
Bit rate mode : Constant
Bit rate : 1 536 kb/s
Channel(s) : 2 channels
Channel layout : L R
Sampling rate : 48.0 kHz
Bit depth : 16 bits
Stream size : 44.1 MiB (1%)
Title : Core Media Audio
Encoded date : UTC 2016-06-25 03:46:14
Tagged date : UTC 2016-06-25 03:47:33

Other
ID : 3
Type : Time code
Format : QuickTime TC
Duration : 4 min 0 s
Frame rate : 25.000 FPS
Time code of first frame : 01:00:00:00
Time code, striped : Yes
Title : Core Media Time Code
Encoded date : UTC 2016-06-25 03:46:14
Tagged date : UTC 2016-06-25 03:47:33

资源下载
下载价格5 金币
VIP免费
此资源购买后15天内可下载。如有发现链接失效,请联系网站管理
0

评论0

请先

只要资源在百度网盘,分享的链接就有几率被和谐。如果遇到此类问题,联系网站管理员补链接即可。如果还有未尽事宜,我们将本着公平合理的原则,与您友好协调解决!
没有账号?注册  忘记密码?