BESTie - Thank U Very Much (Bugs-1080p-488M)

BESTie - Thank U Very Much (Bugs-1080p-488M).mp4

文件信息:
Complete name : BESTie - Thank U Very Much (Bugs-1080p-488M).mp4
Format : MPEG-4
Codec ID : M4V (M4V /mp42/isom)
File size : 488 MiB
Duration : 3 min 20 s
Overall bit rate mode : Variable
Overall bit rate : 20.4 Mb/s
Encoded date : UTC 2014-02-26 16:53:02
Tagged date : UTC 2014-02-26 16:53:10
TIM : 01:00:51:02
TSC : 24000
TSZ : 1001

Video
ID : 1
Format : AVC
Format/Info : Advanced Video Codec
Format profile : High@L4
Format settings : 2 Ref Frames
Format settings, CABAC : No
Format settings, Reference fra : 2 frames
Codec ID : avc1
Codec ID/Info : Advanced Video Coding
Duration : 3 min 20 s
Source duration : 3 min 20 s
Bit rate : 20.2 Mb/s
Width : 1 920 pixels
Height : 1 080 pixels
Display aspect ratio : 16:9
Frame rate mode : Variable
Frame rate : 23.976 (24000/1001) FPS
Minimum frame rate : 23.976 FPS
Maximum frame rate : 24.000 FPS
Standard : NTSC
Color space : YUV
Chroma subsampling : 4:2:0
Bit depth : 8 bits
Scan type : Progressive
Bits/(Pixel*Frame) : 0.407
Stream size : 484 MiB (99%)
Source stream size : 484 MiB (99%)
Language : English
Encoded date : UTC 2014-02-26 16:53:02
Tagged date : UTC 2014-02-26 16:53:02
Color range : Limited
Color primaries : BT.709
Transfer characteristics : BT.709
Matrix coefficients : BT.709
mdhd_Duration : 200867
Codec configuration box : avcC

Audio
ID : 2
Format : AAC LC
Format/Info : Advanced Audio Codec Low Complexity
Codec ID : mp4a-40-2
Duration : 3 min 20 s
Source duration : 3 min 20 s
Bit rate mode : Variable
Bit rate : 157 kb/s
Maximum bit rate : 252 kb/s
Channel(s) : 2 channels
Channel layout : L R
Sampling rate : 48.0 kHz
Frame rate : 46.875 FPS (1024 SPF)
Compression mode : Lossy
Stream size : 3.77 MiB (1%)
Source stream size : 3.77 MiB (1%)
Language : English
Encoded date : UTC 2014-02-26 16:53:02
Tagged date : UTC 2014-02-26 16:53:02
mdhd_Duration : 200917

资源下载
下载价格5 金币
VIP 5折、终身VIP免费
此资源购买后15天内可下载。如有发现链接失效,请联系网站管理
0

评论0

请先

只要资源在百度网盘,分享的链接就有几率被和谐。如果遇到此类问题,联系网站管理员补链接即可。如果还有未尽事宜,我们将本着公平合理的原则,与您友好协调解决!
没有账号?注册  忘记密码?