李健 - 一路花香一路唱 (Master-2160p-584M)

李健 - 一路花香一路唱 (Master-2160p-584M).mp4

文件信息:
Complete name : 李健 - 一路花香一路唱 (Master-2160p-584M).mp4
Format : MPEG-4
Format profile : Base Media
Codec ID : isom (isom/iso2/avc1/mp41)
File size : 584 MiB
Duration : 4 min 48 s
Overall bit rate mode : Variable
Overall bit rate : 17.0 Mb/s
Encoded date : UTC 2021-05-06 05:18:25
Tagged date : UTC 2021-05-06 05:18:39
TIM : 00:00:00:00
TSC : 25
TSZ : 1

Video
ID : 1
Format : AVC
Format/Info : Advanced Video Codec
Format profile : High@L5.1
Format settings : CABAC / 4 Ref Frames
Format settings, CABAC : Yes
Format settings, Reference fra : 4 frames
Codec ID : avc1
Codec ID/Info : Advanced Video Coding
Duration : 4 min 40 s
Bit rate : 16.7 Mb/s
Width : 3 840 pixels
Height : 2 160 pixels
Display aspect ratio : 16:9
Frame rate mode : Constant
Frame rate : 25.000 FPS
Color space : YUV
Chroma subsampling : 4:2:0
Bit depth : 8 bits
Scan type : Progressive
Bits/(Pixel*Frame) : 0.080
Stream size : 557 MiB (95%)
Encoded date : UTC 2021-05-06 05:18:25
Tagged date : UTC 2021-05-06 05:18:39
Color range : Limited
Color primaries : BT.709
Transfer characteristics : BT.709
Matrix coefficients : BT.709
Codec configuration box : avcC

Audio
ID : 2
Format : ALAC
Codec ID : alac
Codec ID/Info : Apple Lossless Audio Codec
Duration : 4 min 48 s
Duration_LastFrame : -86 ms
Bit rate mode : Variable
Bit rate : 792 kb/s
Channel(s) : 2 channels
Sampling rate : 44.1 kHz
Bit depth : 16 bits
Stream size : 27.2 MiB (5%)
Language : English
Default : Yes
Alternate group : 1
Encoded date : UTC 2021-05-06 05:18:25
Tagged date : UTC 2021-05-06 05:18:39

资源下载
下载价格2 金币
此资源购买后15天内可下载。如有发现链接失效,请联系网站管理
0

评论0

请先

只要资源在百度网盘,分享的链接就有几率被和谐。如果遇到此类问题,联系网站管理员补链接即可。如果还有未尽事宜,我们将本着公平合理的原则,与您友好协调解决!
没有账号?注册  忘记密码?