田馥甄 - 讽刺的情书 (Master-1.64G)

歌手:田馥甄
所属专辑:无人知晓
发行时间:2020-09-25
发行公司: 容合音乐娱乐有限公司

田馥甄 - 讽刺的情书 (Master-1080p-1.64G).mov

文件信息:
Complete name : 田馥甄 - 讽刺的情书 (Master-1080p-1.64G).mov
Format : MPEG-4
Format profile : QuickTime
Codec ID : qt 2005.03 (qt )
File size : 1.64 GiB
Duration : 5 min 0 s
Overall bit rate mode : Variable
Overall bit rate : 47.0 Mb/s
Encoded date : UTC 2020-07-02 09:51:46
Tagged date : UTC 2020-07-02 10:03:39
Writing library : Apple QuickTime
TIM : 00:00:00:00
TSC : 2997
TSZ : 125

Video
ID : 1
Format : AVC
Format/Info : Advanced Video Codec
Format profile : Main@L4.2
Format settings : 2 Ref Frames
Format settings, CABAC : No
Format settings, Reference fra : 2 frames
Format settings, GOP : N=1
Codec ID : avc1
Codec ID/Info : Advanced Video Coding
Duration : 5 min 0 s
Bit rate mode : Variable
Bit rate : 45.4 Mb/s
Width : 1 920 pixels
Height : 1 080 pixels
Display aspect ratio : 16:9
Frame rate mode : Constant
Frame rate : 23.976 (24000/1001) FPS
Color space : YUV
Chroma subsampling : 4:2:0
Bit depth : 8 bits
Scan type : Progressive
Bits/(Pixel*Frame) : 0.914
Stream size : 1.59 GiB (97%)
Language : English
Encoded date : UTC 2020-07-02 09:51:46
Tagged date : UTC 2020-07-02 10:03:39
Color range : Limited
Color primaries : BT.709
Transfer characteristics : BT.709
Matrix coefficients : BT.709
Codec configuration box : avcC

Audio
ID : 2
Format : PCM
Format settings : Little / Signed
Codec ID : sowt
Duration : 5 min 0 s
Source duration : 5 min 0 s
Bit rate mode : Constant
Bit rate : 1 536 kb/s
Channel(s) : 2 channels
Channel layout : L R
Sampling rate : 48.0 kHz
Bit depth : 16 bits
Stream size : 55.0 MiB (3%)
Source stream size : 55.0 MiB (3%)
Language : English
Encoded date : UTC 2020-07-02 09:51:46
Tagged date : UTC 2020-07-02 10:03:39

Other
ID : 3
Type : Time code
Format : QuickTime TC
Duration : 5 min 0 s
Frame rate : 23.976 (23976/1000) FPS
Time code of first frame : 00:00:00:00
Time code, striped : Yes
Language : English
Encoded date : UTC 2020-07-02 10:03:39
Tagged date : UTC 2020-07-02 10:03:39

资源下载
下载价格5 金币
VIP 5折、终身VIP免费
此资源购买后15天内可下载。如有发现链接失效,请联系网站管理
0

评论0

请先

只要资源在百度网盘,分享的链接就有几率被和谐。如果遇到此类问题,联系网站管理员补链接即可。如果还有未尽事宜,我们将本着公平合理的原则,与您友好协调解决!
没有账号?注册  忘记密码?