Ailee - Make Up Your Mind (Bugs-1080p-264M)

Ailee - Make Up Your Mind (Bugs-1080p-264M).mp4

文件信息:
Complete name : Ailee - Make Up Your Mind (Bugs-1080p-264M).mp4
Format : MPEG-4
Format profile : Base Media / Version 2
Codec ID : mp42 (mp42/mp41)
File size : 265 MiB
Duration : 3 min 29 s
Overall bit rate mode : Variable
Overall bit rate : 10.6 Mb/s
Encoded date : UTC 2021-05-07 05:31:09
Tagged date : UTC 2021-05-07 05:31:15
TIM : 00:00:00:00
TSC : 24
TSZ : 1

Video
ID : 1
Format : AVC
Format/Info : Advanced Video Codec
Format profile : Main@L4.1
Format settings : CABAC / 1 Ref Frames
Format settings, CABAC : Yes
Format settings, Reference fra : 1 frame
Format settings, GOP : M=1, N=30
Codec ID : avc1
Codec ID/Info : Advanced Video Coding
Duration : 3 min 29 s
Bit rate : 10.3 Mb/s
Width : 1 920 pixels
Height : 1 080 pixels
Display aspect ratio : 16:9
Frame rate mode : Constant
Frame rate : 24.000 FPS
Color space : YUV
Chroma subsampling : 4:2:0
Bit depth : 8 bits
Scan type : Progressive
Bits/(Pixel*Frame) : 0.207
Stream size : 257 MiB (97%)
Language : English
Encoded date : UTC 2021-05-07 05:31:09
Tagged date : UTC 2021-05-07 05:31:09
Codec configuration box : avcC

Audio
ID : 2
Format : AAC LC
Format/Info : Advanced Audio Codec Low Complexity
Codec ID : mp4a-40-2
Duration : 3 min 29 s
Source duration : 3 min 29 s
Bit rate mode : Variable
Bit rate : 317 kb/s
Maximum bit rate : 417 kb/s
Channel(s) : 2 channels
Channel layout : L R
Sampling rate : 48.0 kHz
Frame rate : 46.875 FPS (1024 SPF)
Compression mode : Lossy
Stream size : 7.93 MiB (3%)
Source stream size : 7.93 MiB (3%)
Language : English
Encoded date : UTC 2021-05-07 05:31:09
Tagged date : UTC 2021-05-07 05:31:09

资源下载
下载价格2 金币
VIP免费
此资源购买后15天内可下载。如有发现链接失效,请联系网站管理
0

评论0

请先

只要资源在百度网盘,分享的链接就有几率被和谐。如果遇到此类问题,联系网站管理员补链接即可。如果还有未尽事宜,我们将本着公平合理的原则,与您友好协调解决!
没有账号?注册  忘记密码?