IU - The Red Shoes (GomTV-1080p-1.33g)

IU - The Red Shoes.wmv

文件信息:
Complete name : IU - The Red Shoes.wmv
Format : Windows Media
File size : 1.33 GiB
Duration : 8 min 27 s
Overall bit rate : 22.5 Mb/s
Maximum Overall bit rate : 920 kb/s
Encoded date : UTC 1970-01-01 00:00:00
WM/EncodingSettings : PotEncoder

Video
ID : 1
Format : WMV2
Codec ID : WMV2
Codec ID/Info : Windows Media Video 8
Description of the codec : wmv2
Duration : 8 min 27 s
Bit rate : 21.3 Mb/s
Width : 1 920 pixels
Height : 1 080 pixels
Display aspect ratio : 16:9
Frame rate : 24.000 FPS
Bit depth : 8 bits
Bits/(Pixel*Frame) : 0.428
Stream size : 1.26 GiB (95%)

Audio
ID : 2
Format : WMA
Format version : Version 2
Codec ID : 161
Codec ID/Info : Windows Media Audio
Description of the codec : Windows Media Audio V8
Duration : 8 min 27 s
Bit rate : 320 kb/s
Channel(s) : 2 channels
Sampling rate : 44.1 kHz
Bit depth : 16 bits
Stream size : 19.4 MiB (1%)

资源下载
下载价格4 金币
VIP 5折
此资源购买后15天内可下载。如有发现链接失效,请联系网站管理
0

评论0

请先

只要资源在百度网盘,分享的链接就有几率被和谐。如果遇到此类问题,联系网站管理员补链接即可。如果还有未尽事宜,我们将本着公平合理的原则,与您友好协调解决!
没有账号?注册  忘记密码?