Aaron Tippin - That's as Close as I'll Get to Loving You(WEB-MP4-519M)

[视频信息]
视频编码: AVC1 - Native D3D9 DXVA Decoder(VLD) - Intel(R) UHD Graphics 770
输入格式: AVC1(24 bits)
输入尺寸: 640 × 480(1.33:1)
输出格式: dxva
输出尺寸: 640 × 480(1.33:1)
帧率: 29.97
BitRate: 未知

[音频信息]
音频编码: AAC(0xaac0) - 内置 FFmpeg 解码器(aac)
采样率: 48000 -> 48000 Hz
位率: 16 -> 16 位
声道数: 2 -> 2 声道
Bitrate: 382 kbps

General
Complete name : Y:\mv\Aaron Tippin - That's as Close as I'll Get to Loving You.mp4
Format : MPEG-4
Format profile : Base Media
Codec ID : isom (isom/iso2/avc1/mp41)
File size : 519 MiB
Duration : 3 min 33 s
Overall bit rate : 20.4 Mb/s
Movie name : That's as Close as I'll Get to Loving You
Track name/Position : 1
Description : USRV82000198
Writing application : Lavf58.29.100
Copyright : (C) 2020 Sony Music Entertainment

Video
ID : 1
Format : AVC
Format/Info : Advanced Video Codec
Format profile : High@L5.2
Format settings : CABAC / 4 Ref Frames
Format settings, CABAC : Yes
Format settings, Reference fra : 4 frames
Codec ID : avc1
Codec ID/Info : Advanced Video Coding
Duration : 3 min 33 s
Bit rate : 20.0 Mb/s
Width : 640 pixels
Height : 480 pixels
Display aspect ratio : 4:3
Frame rate mode : Constant
Frame rate : 29.970 (30000/1001) FPS
Color space : YUV
Chroma subsampling : 4:2:0
Bit depth : 8 bits
Scan type : Progressive
Bits/(Pixel*Frame) : 2.172
Stream size : 509 MiB (98%)
Writing library : x264 core 158 r2984 3759fcb
Encoding settings : cabac=1 / ref=3 / deblock=1:0:0 / analyse=0x3:0x113 / me=hex / subme=7 / psy=1 / psy_rd=1.00:0.00 / mixed_ref=1 / me_range=16 / chroma_me=1 / trellis=1 / 8x8dct=1 / cqm=0 / deadzone=21,11 / fast_pskip=1 / chroma_qp_offset=-2 / threads=6 / lookahead_threads=1 / sliced_threads=0 / nr=0 / decimate=1 / interlaced=0 / bluray_compat=0 / constrained_intra=0 / bframes=3 / b_pyramid=2 / b_adapt=1 / b_bias=0 / direct=1 / weightb=1 / open_gop=0 / weightp=2 / keyint=250 / keyint_min=25 / scenecut=40 / intra_refresh=0 / rc_lookahead=40 / rc=abr / mbtree=1 / bitrate=20000 / ratetol=1.0 / qcomp=0.60 / qpmin=0 / qpmax=69 / qpstep=4 / ip_ratio=1.40 / aq=1:1.00
Language : English
Codec configuration box : avcC

Audio
ID : 2
Format : AAC LC
Format/Info : Advanced Audio Codec Low Complexity
Codec ID : mp4a-40-2
Duration : 3 min 33 s
Duration_LastFrame : -7 ms
Bit rate mode : Constant
Bit rate : 384 kb/s
Channel(s) : 2 channels
Channel layout : L R
Sampling rate : 48.0 kHz
Frame rate : 46.875 FPS (1024 SPF)
Compression mode : Lossy
Stream size : 9.74 MiB (2%)
Language : English
Default : Yes
Alternate group : 1

Other
ID : 3
Type : Time code
Format : QuickTime TC
Duration : 3 min 33 s
Frame rate : 29.970 (30000/1001) FPS
Time code of first frame : 00:00:00:00
Time code, striped : Yes
Language : English
Default : No

 

资源下载此资源下载价格为2金币,VIP免费,请先
如有发现链接失效,请联系网站管理
资源下载
下载价格2 金币
VIP免费
如有发现链接失效,请联系网站管理
0

评论0

请先

只要资源在百度网盘,分享的链接就有几率被和谐。如果遇到此类问题,联系网站管理员补链接即可。如果还有未尽事宜,我们将本着公平合理的原则,与您友好协调解决!
没有账号? 注册  忘记密码?