tripleS - Generation(Bugs-1.31G)

歌手:tripleS (트리플에스)
专辑:Acid Angel from Asia <ACCESS>
语种: 韩语
唱片公司:Kakao Entertainment Corp.
发行时间:2022-10-28

General
Complete name : F:\tripleS (트리플에스) - Generation_tripleS (트리플에스)_1080p.mp4
Format : MPEG-4
Format profile : Base Media / Version 2
Codec ID : mp42 (mp42/mp41)
File size : 1.31 GiB
Duration : 3 min 11 s
Overall bit rate mode : Variable
Overall bit rate : 59.0 Mb/s
Encoded date : UTC 2022-10-27 08:45:24
Tagged date : UTC 2022-10-27 08:46:57
TIM : 00:00:00:00
TSC : 24000
TSZ : 1001

Video
ID : 1
Format : AVC
Format/Info : Advanced Video Codec
Format profile : Main@L5.1
Format settings : CABAC / 2 Ref Frames
Format settings, CABAC : Yes
Format settings, Reference fra : 2 frames
Format settings, GOP : M=1, N=24
Codec ID : avc1
Codec ID/Info : Advanced Video Coding
Duration : 3 min 11 s
Bit rate : 58.7 Mb/s
Width : 3 840 pixels
Height : 2 160 pixels
Display aspect ratio : 16:9
Frame rate mode : Constant
Frame rate : 23.976 (24000/1001) FPS
Color space : YUV
Chroma subsampling : 4:2:0
Bit depth : 8 bits
Scan type : Progressive
Bits/(Pixel*Frame) : 0.295
Stream size : 1.31 GiB (99%)
Language : English
Encoded date : UTC 2022-10-27 08:45:24
Tagged date : UTC 2022-10-27 08:45:24
Color range : Limited
Color primaries : BT.709
Transfer characteristics : BT.709
Matrix coefficients : BT.709
Codec configuration box : avcC

Audio
ID : 2
Format : AAC LC
Format/Info : Advanced Audio Codec Low Complexity
Codec ID : mp4a-40-2
Duration : 3 min 11 s
Source duration : 3 min 11 s
Bit rate mode : Variable
Bit rate : 317 kb/s
Maximum bit rate : 426 kb/s
Channel(s) : 2 channels
Channel layout : L R
Sampling rate : 48.0 kHz
Frame rate : 46.875 FPS (1024 SPF)
Compression mode : Lossy
Stream size : 7.23 MiB (0%)
Source stream size : 7.23 MiB (0%)
Language : English
Encoded date : UTC 2022-10-27 08:45:25
Tagged date : UTC 2022-10-27 08:45:25

 

资源下载此资源下载价格为4金币,VIP 5折、终身VIP免费,请先
如有发现链接失效,请联系网站管理
资源下载
下载价格4 金币
VIP 5折、终身VIP免费
如有发现链接失效,请联系网站管理
0

评论0

请先

只要资源在百度网盘,分享的链接就有几率被和谐。如果遇到此类问题,联系网站管理员补链接即可。如果还有未尽事宜,我们将本着公平合理的原则,与您友好协调解决!
没有账号? 注册  忘记密码?