UJI (BESTie) - Love Letter (Feat. The Channels) (Master-1080p-1.48G)

UJI (BESTie) - Love Letter (Feat. The Channels) (Master-1080p-1.48G).mov

文件信息:
Complete name : UJI (BESTie) - Love Letter (Feat. The Channels) (Master-1080p-1.48G).mov
Format : MPEG-4
Format profile : QuickTime
Codec ID : qt 2005.03 (qt )
File size : 1.48 GiB
Duration : 2 min 4 s
Overall bit rate mode : Variable
Overall bit rate : 103 Mb/s
Encoded date : UTC 2015-02-16 15:20:24
Tagged date : UTC 2015-02-16 15:32:56
Writing library : Apple QuickTime
TIM : 00;00;00;00
TSC : 2997
TSZ : 100

Video
ID : 1
Format : AVC
Format/Info : Advanced Video Codec
Format profile : Main@L5.1
Format settings : 2 Ref Frames
Format settings, CABAC : No
Format settings, Reference fra : 2 frames
Format settings, GOP : N=1
Codec ID : avc1
Codec ID/Info : Advanced Video Coding
Duration : 2 min 4 s
Bit rate mode : Variable
Bit rate : 101 Mb/s
Width : 1 920 pixels
Height : 1 080 pixels
Display aspect ratio : 16:9
Frame rate mode : Constant
Frame rate : 29.970 (30000/1001) FPS
Color space : YUV
Chroma subsampling : 4:2:0
Bit depth : 8 bits
Scan type : Progressive
Bits/(Pixel*Frame) : 1.626
Stream size : 1.46 GiB (98%)
Language : English
Encoded date : UTC 2015-02-16 15:20:24
Tagged date : UTC 2015-02-16 15:32:56
Color range : Limited
Color primaries : BT.709
Transfer characteristics : BT.709
Matrix coefficients : BT.709
Codec configuration box : avcC

Audio
ID : 2
Format : PCM
Format settings : Little / Signed
Codec ID : sowt
Duration : 2 min 4 s
Source duration : 2 min 4 s
Bit rate mode : Constant
Bit rate : 1 536 kb/s
Channel(s) : 2 channels
Channel layout : L R
Sampling rate : 48.0 kHz
Bit depth : 16 bits
Stream size : 22.7 MiB (1%)
Source stream size : 22.7 MiB (1%)
Language : English
Encoded date : UTC 2015-02-16 15:20:24
Tagged date : UTC 2015-02-16 15:32:56

Other
ID : 3
Type : Time code
Format : QuickTime TC
Duration : 2 min 4 s
Frame rate : 29.970 (29970/1000) FPS
Time code of first frame : 00:00:00;00
Time code, striped : Yes
Language : English
Encoded date : UTC 2015-02-16 15:32:56
Tagged date : UTC 2015-02-16 15:32:56

资源下载
下载价格5 金币
VIP 5折、终身VIP免费
此资源购买后15天内可下载。如有发现链接失效,请联系网站管理
0

评论0

请先

只要资源在百度网盘,分享的链接就有几率被和谐。如果遇到此类问题,联系网站管理员补链接即可。如果还有未尽事宜,我们将本着公平合理的原则,与您友好协调解决!
没有账号?注册  忘记密码?