尹秀贤 - 花路 (Master-ProRes-1080p-3.64G)

尹秀贤 - 花路 (Master-ProRes-1080p-3.64G).mov

文件信息:
Complete name : 尹秀贤 - 花路 (Master-ProRes-1080p-3.64G).mov
Format : QuickTime
Format/Info : Original Apple specifications
File size : 3.65 GiB
Duration : 3 min 16 s
Overall bit rate mode : Variable
Overall bit rate : 159 Mb/s
Encoded date : UTC 2016-03-08 23:29:31
Tagged date : UTC 2016-03-08 23:31:45
Writing library : Apple QuickTime

Video
ID : 1
Format : ProRes
Format version : Version 0
Format profile : 422 HQ
Codec ID : apch
Duration : 3 min 16 s
Bit rate mode : Variable
Bit rate : 158 Mb/s
Width : 1 920 pixels
Height : 1 080 pixels
Display aspect ratio : 16:9
Frame rate mode : Constant
Frame rate : 29.970 (29970/1000) FPS
Color space : YUV
Chroma subsampling : 4:2:2
Scan type : Progressive
Bits/(Pixel*Frame) : 2.537
Stream size : 3.61 GiB (99%)
Writing library : Apple
Language : English
Encoded date : UTC 2016-03-08 23:29:31
Tagged date : UTC 2016-03-08 23:31:45
Matrix coefficients : BT.709

Audio
ID : 2
Format : PCM
Format settings : Big / Signed
Codec ID : twos
Duration : 3 min 16 s
Bit rate mode : Constant
Bit rate : 1 411.2 kb/s
Channel(s) : 2 channels
Sampling rate : 44.1 kHz
Bit depth : 16 bits
Stream size : 33.1 MiB (1%)
Language : English
Encoded date : UTC 2016-03-08 23:29:31
Tagged date : UTC 2016-03-08 23:31:45

资源下载
下载价格8 金币
此资源购买后15天内可下载。如有发现链接失效,请联系网站管理
0

评论0

请先

只要资源在百度网盘,分享的链接就有几率被和谐。如果遇到此类问题,联系网站管理员补链接即可。如果还有未尽事宜,我们将本着公平合理的原则,与您友好协调解决!
没有账号?注册  忘记密码?