张艺兴LAY - GIVE ME A CHANCE (Master-ProRes-1080p-4.23G)

张艺兴LAY - GIVE ME A CHANCE (Master-ProRes-1080p-4.23G).mov

文件信息:
Complete name : 张艺兴LAY - GIVE ME A CHANCE (Master-ProRes-1080p-4.23G).mov
Format : MPEG-4
Format profile : QuickTime
Codec ID : qt 2005.03 (qt )
File size : 4.24 GiB
Duration : 3 min 43 s
Overall bit rate mode : Variable
Overall bit rate : 163 Mb/s
Encoded date : UTC 2018-10-03 18:22:29
Tagged date : UTC 2018-10-03 18:28:19
Writing library : Apple QuickTime
TIM : 00:00:00:00
TSC : 24000
TSZ : 1001

Video
ID : 1
Format : ProRes
Format version : Version 0
Format profile : 422 HQ
Codec ID : apch
Duration : 3 min 43 s
Bit rate mode : Variable
Bit rate : 161 Mb/s
Width : 1 920 pixels
Height : 1 080 pixels
Display aspect ratio : 16:9
Frame rate mode : Constant
Frame rate : 23.976 (24000/1001) FPS
Color space : YUV
Chroma subsampling : 4:2:2
Scan type : Progressive
Bits/(Pixel*Frame) : 3.246
Stream size : 4.19 GiB (99%)
Writing library : Apple
Language : English
Encoded date : UTC 2018-10-03 18:22:29
Tagged date : UTC 2018-10-03 18:22:29
Color primaries : BT.709
Transfer characteristics : BT.709
Matrix coefficients : BT.709

Audio
ID : 2
Format : PCM
Format settings : Little / Signed
Codec ID : sowt
Duration : 3 min 43 s
Bit rate mode : Constant
Bit rate : 1 536 kb/s
Channel(s) : 2 channels
Channel layout : L R
Sampling rate : 48.0 kHz
Bit depth : 16 bits
Stream size : 40.9 MiB (1%)
Language : English
Encoded date : UTC 2018-10-03 18:22:29
Tagged date : UTC 2018-10-03 18:22:29

Other
ID : 3
Type : Time code
Format : QuickTime TC
Duration : 3 min 43 s
Frame rate : 23.976 (24000/1001) FPS
Time code of first frame : 00:00:00:00
Time code, striped : Yes
Language : English
Encoded date : UTC 2018-10-03 18:22:29
Tagged date : UTC 2018-10-03 18:22:29

资源下载
下载价格12 金币
VIP 5折
此资源购买后15天内可下载。如有发现链接失效,请联系网站管理
0

评论0

请先

只要资源在百度网盘,分享的链接就有几率被和谐。如果遇到此类问题,联系网站管理员补链接即可。如果还有未尽事宜,我们将本着公平合理的原则,与您友好协调解决!
没有账号?注册  忘记密码?