郭富城,蔡依林,罗志祥,吴莫愁 - Shake Your Body(Master-1080p-1.88G)

郭富城&蔡依林&罗志祥&吴莫愁 - Shake Your Body (无水印版) (Master-1080p-1.88G).mp4

文件信息:
Complete name : 郭富城&蔡依林&罗志祥&吴莫愁 - Shake Your Body (无水印版) (Master-1080p-1.88G).mp4
Format : MPEG-4
Format profile : Base Media
Codec ID : isom (isom/iso2/avc1/mp41)
File size : 1.89 GiB
Duration : 4 min 10 s
Overall bit rate mode : Variable
Overall bit rate : 64.5 Mb/s
Encoded date : UTC 2014-06-05 06:17:24
Tagged date : UTC 2014-06-05 06:29:20
TIM : 00:00:00:00
TSC : 24000
TSZ : 1001

Video
ID : 1
Format : AVC
Format/Info : Advanced Video Codec
Format profile : Main@L5.1
Format settings : 2 Ref Frames
Format settings, CABAC : No
Format settings, Reference fra : 2 frames
Format settings, GOP : N=1
Codec ID : avc1
Codec ID/Info : Advanced Video Coding
Duration : 4 min 10 s
Bit rate mode : Variable
Bit rate : 64.2 Mb/s
Width : 1 920 pixels
Height : 1 080 pixels
Display aspect ratio : 16:9
Frame rate mode : Constant
Frame rate : 23.976 (24000/1001) FPS
Color space : YUV
Chroma subsampling : 4:2:0
Bit depth : 8 bits
Scan type : Progressive
Bits/(Pixel*Frame) : 1.291
Stream size : 1.87 GiB (99%)
Language : English
Encoded date : UTC 2014-06-05 06:17:24
Tagged date : UTC 2014-06-05 06:29:20
Color range : Limited
Color primaries : BT.709
Transfer characteristics : BT.709
Matrix coefficients : BT.709
Codec configuration box : avcC

Audio #1
ID : 2
Format : MPEG Audio
Format version : Version 1
Format profile : Layer 2
Codec ID : mp4a-6B
Duration : 4 min 10 s
Bit rate mode : Constant
Bit rate : 256 kb/s
Channel(s) : 2 channels
Sampling rate : 48.0 kHz
Compression mode : Lossy
Stream size : 7.63 MiB (0%)
Default : No
Alternate group : 1
Encoded date : UTC 2014-06-05 06:17:24
Tagged date : UTC 2014-06-05 06:29:20

Audio #2
ID : 3
Format : AAC LC
Format/Info : Advanced Audio Codec Low Complexity
Codec ID : mp4a-40-2
Duration : 4 min 10 s
Bit rate mode : Constant
Bit rate : 192 kb/s
Channel(s) : 2 channels
Channel layout : L R
Sampling rate : 48.0 kHz
Frame rate : 46.875 FPS (1024 SPF)
Compression mode : Lossy
Stream size : 5.75 MiB (0%)
Language : English
Default : Yes
Alternate group : 1
Encoded date : UTC 2014-06-05 06:17:24
Tagged date : UTC 2014-06-05 06:29:20

Other
ID : 4
Type : Time code
Format : QuickTime TC
Duration : 4 min 10 s
Frame rate : 23.976 (24000/1001) FPS
Time code of first frame : 00:00:00:00
Time code, striped : Yes
Language : English
Default : No
Encoded date : UTC 2014-06-05 06:17:24
Tagged date : UTC 2014-06-05 06:29:20

 

资源下载
下载价格5 金币
此资源购买后15天内可下载。如有发现链接失效,请联系网站管理
0

评论0

请先

只要资源在百度网盘,分享的链接就有几率被和谐。如果遇到此类问题,联系网站管理员补链接即可。如果还有未尽事宜,我们将本着公平合理的原则,与您友好协调解决!
没有账号?注册  忘记密码?