郑秀文,铁树兰乐队 - Power of Love (Master-1080p-863M)

郑秀文,铁树兰乐队 - Power of Love (Master-1080p-863M).mp4

文件信息:
Complete name : 郑秀文,铁树兰乐队 - Power of Love (Master-1080p-863M).mp4
Format : MPEG-4
Format profile : Base Media / Version 2
Codec ID : mp42 (mp42/avc1)
File size : 863 MiB
Duration : 3 min 59 s
Overall bit rate : 30.3 Mb/s
Encoded date : UTC 2019-07-10 06:42:19
Tagged date : UTC 2019-07-10 06:42:23

Video
ID : 2
Format : AVC
Format/Info : Advanced Video Codec
Format profile : Main@L5
Format settings : 2 Ref Frames
Format settings, CABAC : No
Format settings, Reference fra : 2 frames
Codec ID : avc1
Codec ID/Info : Advanced Video Coding
Duration : 3 min 59 s
Bit rate : 30.0 Mb/s
Width : 1 920 pixels
Height : 1 080 pixels
Display aspect ratio : 16:9
Frame rate mode : Constant
Frame rate : 24.000 FPS
Color space : YUV
Chroma subsampling : 4:2:0
Bit depth : 8 bits
Scan type : Progressive
Bits/(Pixel*Frame) : 0.602
Stream size : 854 MiB (99%)
Language : English
Encoded date : UTC 2019-07-10 06:42:15
Tagged date : UTC 2019-07-10 06:42:23
Color range : Limited
Color primaries : BT.709
Transfer characteristics : BT.709
Matrix coefficients : BT.709
Codec configuration box : avcC

Audio
ID : 1
Format : AAC LC
Format/Info : Advanced Audio Codec Low Complexity
Codec ID : mp4a-40-2
Duration : 3 min 59 s
Bit rate mode : Constant
Bit rate : 320 kb/s
Channel(s) : 2 channels
Channel layout : L R
Sampling rate : 48.0 kHz
Frame rate : 46.875 FPS (1024 SPF)
Compression mode : Lossy
Stream size : 8.93 MiB (1%)
Language : English
Encoded date : UTC 2019-07-10 06:42:15
Tagged date : UTC 2019-07-10 06:42:23

资源下载
下载价格6 金币
VIP 5折
此资源购买后15天内可下载。如有发现链接失效,请联系网站管理
0

评论0

请先

只要资源在百度网盘,分享的链接就有几率被和谐。如果遇到此类问题,联系网站管理员补链接即可。如果还有未尽事宜,我们将本着公平合理的原则,与您友好协调解决!
没有账号?注册  忘记密码?