郭少杰 - 一曲红尘 (Master-1080p-501M)

郭少杰 - 一曲红尘 (Master-1080p-501M).mov

文件信息:
Complete name : 郭少杰 - 一曲红尘 (Master-1080p-501M).mov
Format : MPEG-4
Format profile : QuickTime
Codec ID : qt 0000.00 (qt )
File size : 502 MiB
Duration : 4 min 28 s
Overall bit rate mode : Variable
Overall bit rate : 15.7 Mb/s
Movie name : 未命名项目 3
Description : 此视频有关未命名项目 3
Encoded date : UTC 2014-09-22 07:25:07
Tagged date : UTC 2014-09-22 07:27:31
Writing library : Apple QuickTime
com.apple.quicktime.keywords : 2014-04-08,14-8-28
com.apple.quicktime.author : 郭少杰
com.apple.quicktime.title : 未命名项目 3

Video
ID : 1
Format : AVC
Format/Info : Advanced Video Codec
Format profile : High@L4
Format settings : CABAC / 2 Ref Frames
Format settings, CABAC : Yes
Format settings, Reference fra : 2 frames
Format settings, GOP : M=2, N=15
Codec ID : avc1
Codec ID/Info : Advanced Video Coding
Duration : 4 min 28 s
Bit rate mode : Variable
Bit rate : 15.5 Mb/s
Maximum bit rate : 768 kb/s
Width : 1 920 pixels
Height : 1 080 pixels
Display aspect ratio : 16:9
Frame rate mode : Constant
Frame rate : 30.000 FPS
Original frame rate : 25.000 FPS
Color space : YUV
Chroma subsampling : 4:2:0
Bit depth : 8 bits
Scan type : Progressive
Bits/(Pixel*Frame) : 0.249
Stream size : 496 MiB (99%)
Title : Core Media Video
Encoded date : UTC 2014-09-22 07:25:09
Tagged date : UTC 2014-09-22 07:27:31
Color range : Limited
Color primaries : BT.709
Transfer characteristics : BT.709
Matrix coefficients : BT.709
Codec configuration box : avcC

Audio
ID : 2
Format : AAC LC
Format/Info : Advanced Audio Codec Low Complexity
Codec ID : mp4a-40-2
Duration : 4 min 28 s
Source duration : 4 min 28 s
Bit rate mode : Constant
Bit rate : 128 kb/s
Channel(s) : 2 channels
Channel layout : L R
Sampling rate : 48.0 kHz
Frame rate : 46.875 FPS (1024 SPF)
Compression mode : Lossy
Stream size : 4.07 MiB (1%)
Source stream size : 4.07 MiB (1%)
Title : Core Media Audio
Encoded date : UTC 2014-09-22 07:25:09
Tagged date : UTC 2014-09-22 07:27:31

Other
ID : 3
Type : Time code
Format : QuickTime TC
Duration : 4 min 28 s
Frame rate : 30.000 FPS
Time code of first frame : 00:00:00:00
Time code, striped : Yes
Title : Core Media Time Code
Encoded date : UTC 2014-09-22 07:25:09
Tagged date : UTC 2014-09-22 07:27:31

资源下载
下载价格2 金币
VIP免费
此资源购买后15天内可下载。如有发现链接失效,请联系网站管理
0

评论0

请先

只要资源在百度网盘,分享的链接就有几率被和谐。如果遇到此类问题,联系网站管理员补链接即可。如果还有未尽事宜,我们将本着公平合理的原则,与您友好协调解决!
没有账号?注册  忘记密码?