郭少杰 - 中国脊梁 (Master-1080p-474M)

郭少杰 - 中国脊梁 (Master-1080p-474M).mov

文件信息:
Complete name : 郭少杰 - 中国脊梁 (Master-1080p-474M).mov
Format : MPEG-4
Format profile : QuickTime
Codec ID : qt 0000.00 (qt )
File size : 474 MiB
Duration : 5 min 10 s
Overall bit rate mode : Variable
Overall bit rate : 12.8 Mb/s
Movie name : 新建项目 3
Description : 此视频是关于新建项目 3
Encoded date : UTC 2013-03-26 08:19:57
Tagged date : UTC 2013-03-26 10:31:17
Writing library : Apple QuickTime
com.apple.quicktime.keywords : 舞蹈
com.apple.quicktime.author : 郭 少杰
com.apple.quicktime.title : 新建项目 3

Video
ID : 1
Format : AVC
Format/Info : Advanced Video Codec
Format profile : High@L4
Format settings : 2 Ref Frames
Format settings, CABAC : No
Format settings, Reference fra : 2 frames
Codec ID : avc1
Codec ID/Info : Advanced Video Coding
Duration : 5 min 10 s
Bit rate mode : Variable
Bit rate : 12.7 Mb/s
Width : 1 920 pixels
Height : 1 080 pixels
Display aspect ratio : 16:9
Frame rate mode : Constant
Frame rate : 25.000 FPS
Color space : YUV
Chroma subsampling : 4:2:0
Bit depth : 8 bits
Scan type : Progressive
Bits/(Pixel*Frame) : 0.246
Stream size : 468 MiB (99%)
Title : Core Media Video
Encoded date : UTC 2013-03-26 08:20:13
Tagged date : UTC 2013-03-26 10:31:17
Color range : Limited
Color primaries : BT.709
Transfer characteristics : BT.709
Matrix coefficients : BT.709
Codec configuration box : avcC

Audio
ID : 2
Format : AAC LC
Format/Info : Advanced Audio Codec Low Complexity
Codec ID : mp4a-40-2
Duration : 5 min 10 s
Source duration : 5 min 10 s
Bit rate mode : Constant
Bit rate : 121 kb/s
Nominal bit rate : 128 kb/s
Channel(s) : 2 channels
Channel layout : L R
Sampling rate : 48.0 kHz
Frame rate : 46.875 FPS (1024 SPF)
Compression mode : Lossy
Stream size : 4.49 MiB (1%)
Source stream size : 4.49 MiB (1%)
Title : Core Media Audio
Encoded date : UTC 2013-03-26 08:20:13
Tagged date : UTC 2013-03-26 10:31:17

Other
ID : 3
Type : Time code
Format : QuickTime TC
Duration : 5 min 10 s
Frame rate : 25.000 FPS
Time code of first frame : 00:00:00:00
Time code, striped : Yes
Title : Core Media Time Code
Encoded date : UTC 2013-03-26 08:20:13
Tagged date : UTC 2013-03-26 10:31:17

资源下载
下载价格2 金币
VIP免费
此资源购买后15天内可下载。如有发现链接失效,请联系网站管理
0

评论0

请先

只要资源在百度网盘,分享的链接就有几率被和谐。如果遇到此类问题,联系网站管理员补链接即可。如果还有未尽事宜,我们将本着公平合理的原则,与您友好协调解决!
没有账号?注册  忘记密码?