孝敏Hyomin - Allure (Master-ProRes-1080p-3.86G)

孝敏Hyomin - Allure (Master-ProRes-1080p-3.86G).mov

文件信息:
Complete name : 孝敏Hyomin - Allure (Master-ProRes-1080p-3.86G).mov
Format : MPEG-4
Format profile : QuickTime
Codec ID : qt 0000.00 (qt )
File size : 3.86 GiB
Duration : 3 min 12 s
Overall bit rate mode : Variable
Overall bit rate : 172 Mb/s
Movie name : HYOMIN_ALLURE_FINAL
Description : This video is about HYOMIN_ALLURE_FINAL
Encoded date : UTC 2019-02-16 08:39:42
Tagged date : UTC 2019-02-16 08:49:59
Writing library : Apple QuickTime
com.apple.quicktime.keywords : FINAL_CC,cc0215,motion0216,FINAL_CC_DROP,cc0215-2,cc_revision,cc0215-3,project,sound,music
com.apple.quicktime.author : HyunsooKim
com.apple.quicktime.title : HYOMIN_ALLURE_FINAL

Video
ID : 2
Format : ProRes
Format version : Version 0
Format profile : 422 HQ
Codec ID : apch
Duration : 3 min 12 s
Bit rate mode : Variable
Bit rate : 170 Mb/s
Width : 1 920 pixels
Height : 1 080 pixels
Display aspect ratio : 16:9
Frame rate mode : Constant
Frame rate : 23.976 (24000/1001) FPS
Color space : YUV
Chroma subsampling : 4:2:2
Scan type : Progressive
Bits/(Pixel*Frame) : 3.414
Stream size : 3.80 GiB (98%)
Title : Core Media Video
Writing library : Apple
Encoded date : UTC 2019-02-16 08:39:42
Tagged date : UTC 2019-02-16 08:49:59
Color primaries : BT.709
Transfer characteristics : BT.709
Matrix coefficients : BT.709

Audio
ID : 1
Format : PCM
Format settings : Little / Signed
Codec ID : lpcm
Duration : 3 min 12 s
Bit rate mode : Constant
Bit rate : 2 304 kb/s
Channel(s) : 2 channels
Channel layout : L R
Sampling rate : 48.0 kHz
Bit depth : 24 bits
Stream size : 52.9 MiB (1%)
Title : Core Media Audio
Encoded date : UTC 2019-02-16 08:39:42
Tagged date : UTC 2019-02-16 08:49:59

Other
ID : 3
Type : Time code
Format : QuickTime TC
Duration : 3 min 12 s
Frame rate : 23.976 (24000/1001) FPS
Time code of first frame : 00:00:00:00
Time code, striped : Yes
Title : Core Media Time Code
Encoded date : UTC 2019-02-16 08:39:42
Tagged date : UTC 2019-02-16 08:49:59

 

资源下载
下载价格12 金币
VIP 5折
此资源购买后15天内可下载。如有发现链接失效,请联系网站管理
1

评论0

请先

只要资源在百度网盘,分享的链接就有几率被和谐。如果遇到此类问题,联系网站管理员补链接即可。如果还有未尽事宜,我们将本着公平合理的原则,与您友好协调解决!
没有账号?注册  忘记密码?