ITZY - Mafia In The Morning (Master-ProRes-2160p-8.67G)

ITZY - Mafia In The Morning (Master-ProRes-2160p-8.67G).mov

文件信息:
Complete name : ITZY - Mafia In The Morning (Master-ProRes-2160p-8.67G).mov
Format : MPEG-4
Format profile : QuickTime
Codec ID : qt 2005.03 (qt )
File size : 8.68 GiB
Duration : 3 min 4 s
Overall bit rate mode : Variable
Overall bit rate : 403 Mb/s
Encoded date : UTC 2021-04-29 22:37:00
Tagged date : UTC 2021-04-29 22:38:45
Writing library : Apple QuickTime
TIM : 00:07:15:09
TSC : 24000
TSZ : 1001

Video
ID : 1
Format : ProRes
Format version : Version 0
Format profile : 422
Codec ID : apcn
Duration : 3 min 4 s
Bit rate mode : Variable
Bit rate : 402 Mb/s
Width : 3 840 pixels
Height : 2 160 pixels
Display aspect ratio : 16:9
Frame rate mode : Constant
Frame rate : 23.976 (24000/1001) FPS
Color space : YUV
Chroma subsampling : 4:2:2
Scan type : Progressive
Bits/(Pixel*Frame) : 2.020
Stream size : 8.64 GiB (100%)
Writing library : adb0
Language : English
Encoded date : UTC 2021-04-29 22:37:00
Tagged date : UTC 2021-04-29 22:37:00
Color primaries : BT.709
Transfer characteristics : BT.709
Matrix coefficients : BT.709
Menus : 0

Audio
ID : 2
Format : PCM
Format settings : Little / Signed
Codec ID : sowt
Duration : 3 min 4 s
Bit rate mode : Constant
Bit rate : 1 536 kb/s
Channel(s) : 2 channels
Channel layout : L R
Sampling rate : 48.0 kHz
Bit depth : 16 bits
Stream size : 33.8 MiB (0%)
Language : English
Encoded date : UTC 2021-04-29 22:37:00
Tagged date : UTC 2021-04-29 22:37:00
Menus : 0

Other
ID : 3
Type : Time code
Format : QuickTime TC
Duration : 3 min 4 s
Frame rate : 23.976 (24000/1001) FPS
Time code of first frame : 00:07:15:09
Time code, striped : Yes
Language : English
Encoded date : UTC 2021-04-29 22:37:00
Tagged date : UTC 2021-04-29 22:37:00

资源下载
下载价格20 金币
VIP 5折
此资源购买后15天内可下载。如有发现链接失效,请联系网站管理
0

评论0

请先

只要资源在百度网盘,分享的链接就有几率被和谐。如果遇到此类问题,联系网站管理员补链接即可。如果还有未尽事宜,我们将本着公平合理的原则,与您友好协调解决!
没有账号?注册  忘记密码?