魏晖倪 - 尚水的话 (Master-ProRes-1080p-5.71G)

魏晖倪 - 尚水的话 (Master-ProRes-1080p-5.71G).mov

文件信息:
魏晖倪 - 尚水的话 (Master-ProRes-1080p-5.71G).mov
Format : MPEG-4
Format profile : QuickTime
Codec ID : qt 2005.03 (qt )
File size : 5.72 GiB
Duration : 4 min 5 s
Overall bit rate mode : Variable
Overall bit rate : 200 Mb/s
Encoded date : UTC 2019-03-07 12:15:38
Tagged date : UTC 2019-03-07 12:36:29
Writing library : Apple QuickTime
TIM : 00;00;00;00
TSC : 2997
TSZ : 100

Video
ID : 1
Format : ProRes
Format version : Version 0
Format profile : 422 HQ
Codec ID : apch
Duration : 4 min 5 s
Bit rate mode : Variable
Bit rate : 199 Mb/s
Width : 1 920 pixels
Clean aperture width : 1 920 pixels
Height : 1 080 pixels
Clean aperture height : 1 080 pixels
Display aspect ratio : 16:9
Clean aperture display aspect : 16:9
Frame rate mode : Constant
Frame rate : 29.970 (30000/1001) FPS
Color space : YUV
Chroma subsampling : 4:2:2
Scan type : Progressive
Bits/(Pixel*Frame) : 3.196
Stream size : 5.67 GiB (99%)
Title : Apple µ¯∞T¥C≈È≥B≤zæπ / Apple ¥¿®≠∏ÍÆ∆≥B≤zæπ
Writing library : Mrzn
Language : English
Encoded date : UTC 2019-03-07 12:15:38
Tagged date : UTC 2019-03-07 12:36:16

Audio
ID : 2
Format : PCM
Format settings : Little / Signed
Codec ID : sowt
Duration : 4 min 5 s
Source duration : 4 min 5 s
Bit rate mode : Constant
Bit rate : 1 536 kb/s
Channel(s) : 2 channels
Channel layout : L R
Sampling rate : 48.0 kHz
Bit depth : 16 bits
Stream size : 44.9 MiB (1%)
Source stream size : 44.9 MiB (1%)
Title : Apple ¡n≠µ¥C≈È≥B≤zæπ / Apple ¥¿®≠∏ÍÆ∆≥B≤zæπ
Language : English
Encoded date : UTC 2019-03-07 12:15:38
Tagged date : UTC 2019-03-07 12:36:16

Other
ID : 3
Type : Time code
Format : QuickTime TC
Duration : 4 min 5 s
Frame rate : 29.970 (29970/1000) FPS
Time code of first frame : 00:00:00;00
Time code, striped : Yes
Title : Æ…∂°ΩX¥C≈È≥B≤zæπ / Apple ¥¿®≠∏ÍÆ∆≥B≤zæπ
Language : English
Encoded date : UTC 2019-03-07 12:36:15
Tagged date : UTC 2019-03-07 12:36:16

资源下载
下载价格12 金币
VIP 5折
此资源购买后15天内可下载。如有发现链接失效,请联系网站管理
0

评论0

请先

只要资源在百度网盘,分享的链接就有几率被和谐。如果遇到此类问题,联系网站管理员补链接即可。如果还有未尽事宜,我们将本着公平合理的原则,与您友好协调解决!
没有账号?注册  忘记密码?