韩笙笙 - 看得见寂寞 (Master-ProRes-1080p-5.78G)

韩笙笙 - 看得见寂寞 (Master-ProRes-1080p-5.78G).mov

文件信息:
韩笙笙 - 看得见寂寞 (Master-ProRes-1080p-5.78G).mov
Format : MPEG-4
Format profile : QuickTime
Codec ID : qt 2005.03 (qt )
File size : 5.78 GiB
Duration : 4 min 58 s
Overall bit rate mode : Variable
Overall bit rate : 166 Mb/s
Encoded date : UTC 2017-07-12 10:18:21
Tagged date : UTC 2017-07-12 10:22:39
Writing library : Apple QuickTime
TIM : 00:00:00:00
TSC : 24
TSZ : 1

Video
ID : 1
Format : ProRes
Format version : Version 0
Format profile : 422 HQ
Codec ID : apch
Duration : 4 min 58 s
Bit rate mode : Variable
Bit rate : 166 Mb/s
Width : 1 920 pixels
Height : 1 080 pixels
Display aspect ratio : 16:9
Frame rate mode : Constant
Frame rate : 24.000 FPS
Color space : YUV
Chroma subsampling : 4:2:2
Scan type : Progressive
Bits/(Pixel*Frame) : 3.335
Stream size : 5.77 GiB (100%)
Writing library : Apple
Language : English
Encoded date : UTC 2017-07-12 10:18:21
Tagged date : UTC 2017-07-12 10:22:39
Color primaries : BT.709
Transfer characteristics : BT.709
Matrix coefficients : BT.709

Audio
ID : 2
Format : AAC LC
Format/Info : Advanced Audio Codec Low Complexity
Codec ID : mp4a-40-2
Duration : 4 min 58 s
Source duration : 4 min 58 s
Bit rate mode : Constant
Bit rate : 320 kb/s
Nominal bit rate : 128 kb/s
Channel(s) : 2 channels
Channel layout : L R
Sampling rate : 48.0 kHz
Frame rate : 46.875 FPS (1024 SPF)
Compression mode : Lossy
Stream size : 11.4 MiB (0%)
Source stream size : 11.4 MiB (0%)
Language : English
Encoded date : UTC 2017-07-12 10:18:21
Tagged date : UTC 2017-07-12 10:22:39

Other
ID : 3
Type : Time code
Format : QuickTime TC
Duration : 4 min 58 s
Frame rate : 24.000 FPS
Time code of first frame : 00:00:00:00
Time code, striped : Yes
Language : English
Encoded date : UTC 2017-07-12 10:22:39
Tagged date : UTC 2017-07-12 10:22:39

资源下载
下载价格12 金币
VIP 5折
此资源购买后15天内可下载。如有发现链接失效,请联系网站管理
0

评论0

请先

只要资源在百度网盘,分享的链接就有几率被和谐。如果遇到此类问题,联系网站管理员补链接即可。如果还有未尽事宜,我们将本着公平合理的原则,与您友好协调解决!
没有账号?注册  忘记密码?