Rocket Punch - CHIQUITA(Master-ProRes-17.48G)

歌手:Rocket Punch (로켓펀치)
专辑:YELLOW PUNCH
语种: 韩语
唱片公司:Woollim Entertainment
发行时间:2022-02-28

General
Complete name : F:\Rocket Punch - CHIQUITA (4K ProRes).mov
Format : MPEG-4
Format profile : QuickTime
Codec ID : qt 2005.03 (qt )
File size : 17.5 GiB
Duration : 3 min 11 s
Overall bit rate mode : Variable
Overall bit rate : 785 Mb/s
Encoded date : UTC 2022-02-26 05:10:51
Tagged date : UTC 2022-02-26 05:19:34
Writing library : Apple QuickTime
TIM : 00:00:03:13
TSC : 24000
TSZ : 1001
IsTruncated : Yes

Video
ID : 1
Format : ProRes
Format version : Version 1
Format profile : 4444
Codec ID : ap4h
Duration : 3 min 11 s
Bit rate mode : Variable
Bit rate : 784 Mb/s
Width : 3 840 pixels
Height : 2 160 pixels
Display aspect ratio : 16:9
Frame rate mode : Constant
Frame rate : 23.976 (24000/1001) FPS
Color space : YUVA
Chroma subsampling : 4:4:4
Scan type : Progressive
Bits/(Pixel*Frame) : 3.940
Stream size : 17.4 GiB (100%)
Writing library : Apple
Language : English
Encoded date : UTC 2022-02-26 05:10:51
Tagged date : UTC 2022-02-26 05:10:51
Color primaries : BT.709
Transfer characteristics : BT.709
Matrix coefficients : BT.709

Audio
ID : 2
Format : PCM
Format settings : Little / Signed
Codec ID : sowt
Duration : 3 min 11 s
Bit rate mode : Constant
Bit rate : 1 536 kb/s
Channel(s) : 2 channels
Channel layout : L R
Sampling rate : 48.0 kHz
Bit depth : 16 bits
Stream size : 35.0 MiB (0%)
Language : English
Encoded date : UTC 2022-02-26 05:10:51
Tagged date : UTC 2022-02-26 05:10:51

Other
ID : 3
Type : Time code
Format : QuickTime TC
Duration : 3 min 11 s
Frame rate : 23.976 (24000/1001) FPS
Time code of first frame : 00:00:03:13
Time code of last frame : 00:03:14:17
Time code, striped : Yes
Language : English
Encoded date : UTC 2022-02-26 05:10:51
Tagged date : UTC 2022-02-26 05:10:51

资源下载此资源下载价格为20金币,VIP 5折,请先
如有发现链接失效,请联系网站管理
资源下载
下载价格20 金币
VIP 5折
如有发现链接失效,请联系网站管理
0

评论0

请先

只要资源在百度网盘,分享的链接就有几率被和谐。如果遇到此类问题,联系网站管理员补链接即可。如果还有未尽事宜,我们将本着公平合理的原则,与您友好协调解决!
没有账号? 注册  忘记密码?