aespa - Savage(Master-ProRes-18.38G)

歌手:aespa
所属专辑:Savage - The 1st Mini Album
语种:韩语
发行时间:2021-10-05
发行公司: SM ENTERTAINMENT

歌词:

General
Complete name : F:\aespa - Savage (4K ProRes).mov
Format : MPEG-4
Format profile : QuickTime
Codec ID : qt 2005.03 (qt )
File size : 18.4 GiB
Duration : 4 min 18 s
Overall bit rate mode : Variable
Overall bit rate : 612 Mb/s
Encoded date : UTC 2021-10-05 05:28:02
Tagged date : UTC 2021-10-05 05:36:49
Writing library : Apple QuickTime
TIM : 00:00:00:00
TSC : 24000
TSZ : 1001

Video
ID : 1
Format : ProRes
Format version : Version 0
Format profile : 422 HQ
Codec ID : apch
Duration : 4 min 18 s
Bit rate mode : Variable
Bit rate : 610 Mb/s
Width : 3 840 pixels
Height : 2 160 pixels
Display aspect ratio : 16:9
Frame rate mode : Constant
Frame rate : 23.976 (24000/1001) FPS
Color space : YUV
Chroma subsampling : 4:2:2
Scan type : Progressive
Bits/(Pixel*Frame) : 3.068
Stream size : 18.3 GiB (100%)
Writing library : adb0
Language : English
Encoded date : UTC 2021-10-05 05:28:02
Tagged date : UTC 2021-10-05 05:28:02
Color primaries : BT.709
Transfer characteristics : BT.709
Matrix coefficients : BT.709
Menus : 0

Audio
ID : 2
Format : PCM
Format settings : Little / Signed
Codec ID : sowt
Duration : 4 min 18 s
Bit rate mode : Constant
Bit rate : 1 536 kb/s
Channel(s) : 2 channels
Channel layout : L R
Sampling rate : 48.0 kHz
Bit depth : 16 bits
Stream size : 47.3 MiB (0%)
Language : English
Encoded date : UTC 2021-10-05 05:28:02
Tagged date : UTC 2021-10-05 05:28:02
Menus : 0

Other
ID : 3
Type : Time code
Format : QuickTime TC
Duration : 4 min 18 s
Frame rate : 23.976 (24000/1001) FPS
Time code of first frame : 00:00:00:00
Time code of last frame : 00:04:18:03
Time code, striped : Yes
Language : English
Encoded date : UTC 2021-10-05 05:28:02
Tagged date : UTC 2021-10-05 05:28:02

资源下载此资源下载价格为25金币,VIP 5折,请先
如有发现链接失效,请联系网站管理
资源下载
下载价格25 金币
VIP 5折
如有发现链接失效,请联系网站管理
0

评论0

请先

只要资源在百度网盘,分享的链接就有几率被和谐。如果遇到此类问题,联系网站管理员补链接即可。如果还有未尽事宜,我们将本着公平合理的原则,与您友好协调解决!
没有账号? 注册  忘记密码?